您好,欢迎来到菜鸟吧源码网(www.cniao8.com)本站只做精品网站源码!
  • 首 页
  • 会员介绍
  •  

    当前位置:主页 > 影视音乐 >
    Children.Of.Bodom - Wacken.2011.HDTV.720P.5G.百度云
    时间:2019-06-15 作者:菜鸟吧 下载次数:【收藏资源】 【失效报错】


    Children of Bodom(博多之子)是一支成立于1993年的芬兰重金属乐队,Children Of Bodom凭借自己97年《Something Wild》的首次亮相,便一举成为国际巨星, 当时被誉为“芬兰最令人惊喜的乐队”,在金属圈子里变得家喻户晓。当然,这一切都要归功于他们出众的音乐素质,以及那无懈可击的表演能力。乐队的作品融汇了多种音乐元素,一般认为他们的音乐风格是旋律死亡金属、用黑嗓演唱的力量金属。
    General
    ID : 1 (0x1)
    Complete name : F:\Downloads\Children Of Bodom - Wacken 2011.ts
    Format : MPEG-TS
    File size : 5.05 GiB
    Duration : 56mn 0s
    Overall bit rate mode : Variable
    Overall bit rate : 12.9 Mbps
    Video
    ID : 6410 (0x190A)
    Menu ID : 1 (0x1)
    Format : AVC
    Format/Info : Advanced Video Codec
    Format profile : Main@L4
    Format settings, CABAC : Yes
    Format settings, ReFrames : 5 frames
    Codec ID : 27
    Duration : 56mn 0s
    Bit rate : 11.2 Mbps
    Width : 1 280 pixels
    Height : 720 pixels
    Display aspect ratio : 16:9
    Frame rate : 50.000 fps
    Color space : YUV
    Chroma subsampling : 4:2:0
    Bit depth : 8 bits
    Scan type : Progressive
    Bits/(Pixel*Frame) : 0.242
    Stream size : 4.37 GiB (87%)
    Color range : Limited
    Color primaries : BT.709
    Transfer characteristics : BT.709
    Matrix coefficients : BT.709
    Audio #1
    ID : 6420 (0x1914)
    Menu ID : 1 (0x1)
    Format : MPEG Audio
    Format version : Version 1
    Format profile : Layer 2
    Codec ID : 3
    Duration : 56mn 0s
    Bit rate mode : Constant
    Bit rate : 256 Kbps
    Channel(s) : 2 channels
    Sampling rate : 48.0 KHz
    Compression mode : Lossy
    Stream size : 103 MiB (2%)
    Language : German
    Audio #2
    ID : 6421 (0x1915)
    Menu ID : 1 (0x1)
    Format : MPEG Audio
    Format version : Version 1
    Format profile : Layer 2
    Codec ID : 3
    Duration : 56mn 0s
    Bit rate mode : Constant
    Bit rate : 192 Kbps
    Channel(s) : 2 channels
    Sampling rate : 48.0 KHz
    Compression mode : Lossy
    Stream size : 76.9 MiB (1%)
    Audio #3
    ID : 6422 (0x1916)
    Menu ID : 1 (0x1)
    Format : AC-3
    Format/Info : Audio Coding 3
    Mode extension : CM (complete main)
    Format settings, Endianness : Big
    Codec ID : 6
    Duration : 56mn 0s
    Bit rate mode : Constant
    Bit rate : 448 Kbps
    Channel(s) : 2 channels
    Channel positions : Front: L R
    Sampling rate : 48.0 KHz
    Compression mode : Lossy
    Stream size : 179 MiB (3%)
    Language : German
    Audio #4
    ID : 6423 (0x1917)
    Menu ID : 1 (0x1)
    Format : MPEG Audio
    Format version : Version 1
    Format profile : Layer 2
    Codec ID : 3
    Duration : 56mn 0s
    Bit rate mode : Constant
    Bit rate : 192 Kbps
    Channel(s) : 2 channels
    Sampling rate : 48.0 KHz
    Compression mode : Lossy
    Stream size : 76.9 MiB (1%)
    Language : Multiple languages
    Text
    ID : 6430 (0x191E)-100
    Menu ID : 1 (0x1)
    Format : Teletext
    Language : German

    暂无演示
  • 点击下载
  •  —下载需要"10"金币— 注意:当账号有足够金币时 点击下载按钮自动扣除。 充值金币升级VIP

    上一篇:左麟右李十周年演唱会.2013香港有声音.BluRay.720p.百度云

    下一篇:杨千嬅.遇上千嬅.遇上爱.HDJ.Miriam.Yeung.Special.2014.720p

    郑重声明:
    本站所有内容均由互联网收集整理、网友上传,并且以计算机技术研究交流为目的,仅供大家参考、学习,不存在任何商业目的与商业用途。 若您需要商业运营或用于其他商业活动,请您购买正版授权并合法使用。
    我们不承担任何技术及版权问题,且不对任何资源负法律责任。
    如遇到资源无法下载,请点击这里失效报错。失效报错请在修正建议内填写你的邮箱,24小时修正后邮件通知。
    如有侵犯您的版权,请给我们来信:admin@cniao8.com,我们会尽快处理,并诚恳的向你道歉!

    本站不免费提供咨询,技术支持和安装服务如果需要服务请点击这里游戏棋牌类源码不提供搭建